tag star trek discovery the meg Ncis hindi NFL Doctor Who S11E01 the resident 9-1-1 s02e04 ufc The Good Doctor S02E03 ddr Vikings luciana souza Ant-Man and the Wasp Survivor manifest 1080p 2018 better call saul s04e10 etmovies LESBIAN ANAL SEX SLAVES 2018 ITA 2160p wwe ita 2018 avengers the man in the High Castle ufc 229 Big Bang Theory Manifest S01E03 lucifer 0 The big bang theory playboy venom incredibles 2 the walking dead great british bake off s09e07 ethd better call saul DTOne venom 2018 evo ettv arrow español ant mAN AND THE WASP the walking dead s09e01 madam secretary office 2019 walking dead game of thrones a star is born shameless s09e05 star trek discovery español dtone Sicario the good doctor shameless Bull doctor who 1080p YIFY WESTWORLD fgt Mission Impossible Fallout etrg 
Warning! Use a VPN When Downloading Torrents!
Your IP Address is 136.243.35.158. Location is Germany
Your Internet Provider is tracking your torrent activity! Hide your IP ADDRESS with a VPN!
We strongly recommend using NordVPN to anonymize your torrenting. 30 Day Money Back Guarantee!
Try it Now!
ETTV Recommended TV Shows
The.Flash.2014.S05E01.HDTV.x264-SVA[ettv] torrent
Black.Lightning.S02E01.HDTV.x264-SVA[ettv] torrent
Mayans.M.C.S01E06.WEBRip.x264-TBS[ettv] torrent
The.Purge.S01E06.WEB.x264-TBS[ettv] torrent

ETTV Recommended Xvid
Never.Goin.Back.2018.HDRip.XViD-ETRG torrent
The.Witch.Files.2018.HDRip.XViD-ETRG torrent
Searching.2018.HC.HDRip.XviD.AC3-EVO[EtMovies] torrent
Brothers.Nest.2018.DVDRip.XViD-ETRG torrent

ETTV Recommended HD
Constantine.City.of.Demons.The.Movie.2018.1080p.BluRay.x264.DTS-HDMA.5.1-DTOne torrent
Death.Race-Beyond.Anarchy.2018.Multi.1080p.BluRay.x264.DTS-HDMA.5.1-DTOne torrent
Hangman.2017.Multi.BluRay.1080p.x264.DTS-HDMA.5.1-DTOne torrent
The.Extraordinary.Journey.of.the.Fakir.2018.Multi.BluRay.1080p.x264.DTSXLL.5.1-DTOne torrent

ETTV Recommended UHD
Hook.1991.mUHD.2160p.BluRay.x265.HDR.DDP.5.1-DTOne torrent
Shutter.Island.2010.2160p.mUHD.BluRay.x265.HDR.DDP.5.1-DTOne torrent
Uncle.Drew.2018.2160p.mUHD.BluRay.x265.HDR.DDP.5.1-DTOne torrent
Hotel.Transylvania.3.Summer.Vacation.2018.mUHD.2160p.BluRay.x265.HDR.DDP.5.1-DTOne torrent

ETTV Recommended Cam
The Predator 2018 NEW HDCAM.XViD.AC3 ETRG torrent
THE NUN 2018 NEW HDCAM-24HD torrent
Venom 2018 HD-TS V2 X264-1XBET torrent
A.Star.Is.Born.2018.HDCAM.XViD.AC3-ETRG torrent

ETTV Recommended Foreign
Aake (2017) 720p UNCUT HDRip x264 [Dual Audio] [Hindi DD 2.0 - Kannada DD 5.1] Exclusive By -=!Dr.STAR!=- torrent
Vaseegara (2003) DVDRip x264 - DTOne torrent
Imaikkaa Nodigal (2018) [TAMIL - 720p - WEB HDRip - x264 - DD 5.1 - ESub - 2GB] - MAZE torrent
Gangs of Wasseypur Part 1 Uncensored - 2012 BluRay Hindi 720p x264 AAC 5.1 ESub - mkvCinemas torrent

Social


Download Torrent "Modern Family (2009) Season 02 S02 (1080p BluRay x265 HEVC 10bit AAC 5.1 Jo..."

IMDB Details
Description:

N/A

Genre:

N/A

Download Torrent (Magnet)
Download Torrent (File)
Seeds: 225
Leechers: 48
Completed: 1,573 
Last Checked: 04-10-2018 17:32:16


Loading...
Details
Title:Modern Family (2009) Season 02 S02 (1080p BluRay x265 HEVC 10bit AAC 5.1 Jo...
Description:





Media Information
General
Format                                   : Matroska
Format version                           : Version 4 / Version 2
File size                                : 216 MiB
Duration                                 : 21 min 41 s
Overall bit rate                         : 1 395 kb/s
Encoded date                             : UTC 2018-09-30 09:27:33
Writing application                      : mkvmerge v24.0.0 ('Beyond The Pale') 64-bit
Writing library                          : libebml v1.3.6 + libmatroska v1.4.9
Writing frontend                         : StaxRip v1.8.2.0

Video
ID                                       : 1
Format                                   : HEVC
Format/Info                              : High Efficiency Video Coding
Format profile                           : Main [email protected]@Main
Codec ID                                 : V_MPEGH/ISO/HEVC
Duration                                 : 21 min 41 s
Bit rate                                 : 1 200 kb/s
Width                                    : 1 920 pixels
Height                                   : 1 080 pixels
Display aspect ratio                     : 16:9
Frame rate mode                          : Constant
Frame rate                               : 23.976 (24000/1001) FPS
Color space                              : YUV
Chroma subsampling                       : 4:2:0
Bit depth                                : 10 bits
Bits/(Pixel*Frame)                       : 0.024
Stream size                              : 186 MiB (86%)
Writing library                          : x265 2.8+19-bcdc610cf5f0:[Windows][MSVC 1914][64 bit] 10bit
Encoding settings                        : cpuid=1111039 / frame-threads=3 / numa-pools=8 / wpp / no-pmode / no-pme / no-psnr / ssim / log-level=2 / input-csp=1 / input-res=1920x1080 / interlace=0 / total-frames=31196 / level-idc=0 / high-tier=1 / uhd-bd=0 / ref=4 / no-allow-non-conformance / no-repeat-headers / annexb / no-aud / no-hrd / info / hash=0 / no-temporal-layers / open-gop / min-keyint=23 / keyint=250 / gop-lookahead=0 / bframes=4 / b-adapt=2 / b-pyramid / bframe-bias=0 / rc-lookahead=80 / lookahead-slices=4 / scenecut=40 / radl=0 / no-intra-refresh / ctu=64 / min-cu-size=8 / no-rect / no-amp / max-tu-size=32 / tu-inter-depth=1 / tu-intra-depth=1 / limit-tu=0 / rdoq-level=2 / dynamic-rd=0.00 / ssim-rd / signhide / no-tskip / nr-intra=0 / nr-inter=0 / no-constrained-intra / strong-intra-smoothing / max-merge=3 / limit-refs=3 / limit-modes / me=3 / subme=3 / merange=57 / temporal-mvp / weightp / no-weightb / no-analyze-src-pics / deblock=0:0 / sao / no-sao-non-deblock / rd=4 / no-early-skip / rskip / no-fast-intra / no-tskip-fast / no-cu-lossless / no-b-intra / no-splitrd-skip / rdpenalty=0 / psy-rd=0.00 / psy-rdoq=1.50 / no-rd-refine / no-lossless / cbqpoffs=0 / crqpoffs=0 / rc=abr / bitrate=1200 / qcomp=0.60 / qpstep=4 / stats-write=0 / stats-read=2 / cplxblur=20.0 / qblur=0.5 / vbv-maxrate=3600 / vbv-bufsize=6200 / vbv-init=0.9 / ipratio=1.40 / pbratio=1.30 / aq-mode=3 / aq-strength=0.80 / cutree / zone-count=0 / no-strict-cbr / qg-size=32 / no-rc-grain / qpmax=69 / qpmin=0 / no-const-vbv / sar=0 / overscan=0 / videoformat=5 / range=0 / colorprim=2 / transfer=2 / colormatrix=2 / chromaloc=0 / display-window=0 / max-cll=0,0 / min-luma=0 / max-luma=1023 / log2-max-poc-lsb=8 / vui-timing-info / vui-hrd-info / slices=1 / no-opt-qp-pps / no-opt-ref-list-length-pps / multi-pass-opt-rps / scenecut-bias=0.05 / no-opt-cu-delta-qp / no-aq-motion / no-hdr / no-hdr-opt / no-dhdr10-opt / no-idr-recovery-sei / analysis-reuse-level=10 / scale-factor=0 / refine-intra=0 / refine-inter=0 / refine-mv=0 / limit-sao / ctu-info=0 / no-lowpass-dct / refine-mv-type=0 / copy-pic=1 / max-ausize-factor=1.0 / no-dynamic-refine / no-single-sei
Default                                  : Yes
Forced                                   : No

Audio
ID                                       : 2
Format                                   : AAC
Format/Info                              : Advanced Audio Codec
Format profile                           : HE-AAC / LC
Codec ID                                 : A_AAC
Duration                                 : 21 min 41 s
Bit rate                                 : 192 kb/s
Channel(s)                               : 6 channels
Channel positions                        : Front: L C R, Side: L R, LFE
Sampling rate                            : 48.0 kHz / 24.0 kHz
Frame rate                               : 23.438 FPS (1024 spf)
Compression mode                         : Lossy
Delay relative to video                  : 31 ms
Stream size                              : 29.8 MiB (14%)
Language                                 : English
Default                                  : No
Forced                                   : No

Subtitle #1
ID                                       : 3
Format                                   : UTF-8
Codec ID                                 : S_TEXT/UTF8
Codec ID/Info                            : UTF-8 Plain Text
Duration                                 : 21 min 32 s
Bit rate                                 : 112 b/s
Count of elements                        : 428
Stream size                              : 17.7 KiB (0%)
Language                                 : English
Default                                  : No
Forced                                   : No

Subtitle #2
ID                                       : 4
Format                                   : UTF-8
Codec ID                                 : S_TEXT/UTF8
Codec ID/Info                            : UTF-8 Plain Text
Duration                                 : 21 min 31 s
Bit rate                                 : 98 b/s
Count of elements                        : 411
Stream size                              : 15.6 KiB (0%)
Language                                 : Spanish
Default                                  : No
Forced                                   : No

Subtitle #3
ID                                       : 5
Format                                   : UTF-8
Codec ID                                 : S_TEXT/UTF8
Codec ID/Info                            : UTF-8 Plain Text
Duration                                 : 21 min 31 s
Bit rate                                 : 117 b/s
Count of elements                        : 411
Stream size                              : 18.6 KiB (0%)
Language                                 : French
Default                                  : No
Forced                                   : No


Source Information
Release: Modern.Family.S02.1080p.BluRay.x264-MIXED[rartv]  (34.9 GB)


UTR wrote:

Note From UTR
We have no issue with individuals posting or re-uploading our torrents on a platform we aren't on. However, if this is something you'd like to do, please do so in a 'as-is' format. We ask that you do not create a new torrent, include all descriptions you see above including the UTR logo, tags, notes and screenshots. If you'd like to become a permanent poster on a website we don't post to, feel free to get in contact with a UniTeam member.

If possible please donate: BTC 1QA5fum5AyXvWzdVCkQzUNvw3Ef15fHRaR


Category:TV > HEVC/x265
Lang:English  English
Total Size:5.04 GB
Info Hash:9e6b6959535f018d4e995f88962fa49eb0f89bcb
Added By:UTR
Date Added:04-10-2018 17:32:07

Files

File List: 
 File Size
Encoded by JoyBell (UTR).txt2.73 kB
folder.png106.34 kB
How to play HEVC (THIS FILE).txt3.42 kB
Modern Family S02E01 The Old Wagon (1080p x265 10bit Joy).mkv216 MB
Modern Family S02E02 The Kiss (1080p x265 10bit Joy).mkv214 MB
Modern Family S02E03 Earthquake (1080p x265 10bit Joy).mkv216 MB
Modern Family S02E04 Strangers on a Treadmill (1080p x265 10bit Joy).mkv219 MB
Modern Family S02E05 Unplugged (1080p x265 10bit Joy).mkv216 MB
Modern Family S02E06 Halloween (1080p x265 10bit Joy).mkv217 MB
Modern Family S02E07 Chirp (1080p x265 10bit Joy).mkv216 MB
Modern Family S02E08 Manny Get Your Gun (1080p x265 10bit Joy).mkv205 MB
Modern Family S02E09 Mother Tucker (1080p x265 10bit Joy).mkv218 MB
Modern Family S02E10 Dance Dance Revelation (1080p x265 10bit Joy).mkv214 MB
Modern Family S02E11 Slow Down Your Neighbors (1080p x265 10bit Joy).mkv218 MB
Modern Family S02E12 Our Children, Ourselves (1080p x265 10bit Joy).mkv217 MB
Modern Family S02E13 Caught in the Act (1080p x265 10bit Joy).mkv214 MB
Modern Family S02E14 Bixby's Back (1080p x265 10bit Joy).mkv218 MB
Modern Family S02E15 Princess Party (1080p x265 10bit Joy).mkv214 MB
Modern Family S02E16 Regrets Only (1080p x265 10bit Joy).mkv218 MB
Modern Family S02E17 Two Monkeys and a Panda (1080p x265 10bit Joy).mkv214 MB
Modern Family S02E18 Boys' Night (1080p x265 10bit Joy).mkv217 MB
Modern Family S02E19 The Musical Man (1080p x265 10bit Joy).mkv216 MB
Modern Family S02E20 Someone to Watch Over Lily (1080p x265 10bit Joy).mkv211 MB
Modern Family S02E21 Mother's Day (1080p x265 10bit Joy).mkv207 MB
Modern Family S02E22 Good Cop Bad Dog (1080p x265 10bit Joy).mkv215 MB
Modern Family S02E23 See You Next Fall (1080p x265 10bit Joy).mkv215 MB
Modern Family S02E24 The One That Got Away (1080p x265 10bit Joy).mkv216 MB
Ninite K-Lite Codecs Unattended Silent Installer and Updater.website561.00 B



Loading...
Comments

There are currently no comments. Be the first one to write something !

Disclaimer: None of the files shown here are actually hosted or transmitted by this server. The links are provided solely by this site's users. The site moderation is also a service provided by the site's users. The administrator of this site (ettv.tv) cannot be held responsible for what its users post, or any other actions of its users. You may not use this site to distribute or download any material when you do not have the legal rights to do so. It is your own responsibility to adhere to these terms.